منتديات لمسة مرامي

 
الرئيسيةالرئيسية  بحـثبحـث  التسجيلالتسجيل  دخولدخول  

شاطر | 
 

 الأرض BBC - Journey to the Center of the Earth The Restless Planet 2011 1080p BluRay Remux 3Audio-alrmothe

اذهب الى الأسفل 
كاتب الموضوعرسالة
alrmothe
Professional torrent Movies

Professional torrent Movies
avatar

تاريخ التسجيل : 20/11/2012
عدد المساهمات : 150
نقاط التقييم : 410
الجنس : ذكر
الجنسية :
الأوسمة :

مُساهمةموضوع: الأرض BBC - Journey to the Center of the Earth The Restless Planet 2011 1080p BluRay Remux 3Audio-alrmothe   الثلاثاء يناير 14, 2014 9:51 pm

.

TV Series: Documentary : BluRay : English


BBC - Journey to the Center of the Earth The Restless Planet 2011 1080p BluRay Remux 3Audio-alrmothe






Cast
Richard Hammond...Himself - Presenter 


Episode 1: Land /00:50:03

Episode 2: Ocean /00:48:53




الحلقة الأولى اليابسة : تتحمور الحلقة عن تأثير البركاين والتصدعاتفي طبقات الأرض على التغيرات البيولوجية لسطح الأرض


الحلقة الثانية المحيطات: دور المحيطات في تغيير شكل الأرض 


كل ذلك بمشيئة الله سبحانه وتعالى




MEDiA iNFO
Format..........: Matroska
SOURCE TYPE.....: Journey to the Center of the Earth The Restless Planet 2011.DUAL.COMPLETE.BLURAY-iFPD
FRAME RATE......: 25 fps
DISPLAY ASPECT RATIO..: 16:9
AUDiO...1.......: English DTS-HD Master 2 @ 1689  kbps
AUDiO...2.......: German AC3 2 @ 448 kbps
AUDiO...3.......: Russian  AC3 2 @ 192 kbps
RELEASE SIZE....: 19.2 GiB
CHAPTERS........: Yes
IMDB............: http://www.imdb.com/title/tt2000152/
Ratings.........: 8.1/10 
ENCODER.........: alrmothe
RELEASE DATE....: 14/01/2014 . 13/03/1435
Resolution:1920x1080

SUB:NON There is no sub in the original Bluray Disk





اقتباس :

----------Source iNFO------------
DISC INFO:

Disc Title:     EARTH_MACHINE
Disc Size:      23 060 462 753 bytes
Protection:     AACS
BD-Java:        No
Extras:         50Hz Content
BDInfo:         0.5.8

PLAYLIST REPORT:

Name:                   01004.MPLS
Length:                 0:50:03.160 (h:m:s.ms)
Size:                   10 940 497 920 bytes
Total Bitrate:          29,14 Mbps

VIDEO:

Codec                   Bitrate             Description     
-----                   -------             -----------     
MPEG-4 AVC Video        25711 kbps          1080i / 25 fps / 16:9 / High Profile 4.1

AUDIO:

Codec                           Language        Bitrate         Description     
-----                           --------        -------         -----------     
Dolby Digital Audio             Russian         192 kbps        2.0 / 48 kHz / 192 kbps / DN -4dB
DTS-HD Master Audio             English         1689 kbps       2.0 / 48 kHz / 1689 kbps / 16-bit (DTS Core: 2.0 / 48 kHz / 1509 kbps / 16-bit)
Dolby Digital Audio             German          448 kbps        2.0 / 48 kHz / 448 kbps / DN -4d
FILES:

Name            Time In         Length          Size            Total Bitrate   
----            -------         ------          ----            -------------   
00004.M2TS      0:00:00.000     0:50:02.080     10 940 209 152  29 154          
00009.M2TS      0:50:02.080     0:00:01.080     288 768         2 139

PLAYLIST REPORT:

Name:                   01003.MPLS
Length:                 0:48:53.160 (h:m:s.ms)
Size:                   10 646 962 176 bytes
Total Bitrate:          29,04 Mbps

VIDEO:

Codec                   Bitrate             Description     
-----                   -------             -----------     
MPEG-4 AVC Video        25626 kbps          1080i / 25 fps / 16:9 / High Profile 4.1

AUDIO:

Codec                           Language        Bitrate         Description     
-----                           --------        -------         -----------     
Dolby Digital Audio             Russian         192 kbps        2.0 / 48 kHz / 192 kbps / DN -4dB
DTS-HD Master Audio             English         1670 kbps       2.0 / 48 kHz / 1670 kbps / 16-bit (DTS Core: 2.0 / 48 kHz / 1509 kbps / 16-bit)
Dolby Digital Audio             German          448 kbps        2.0 / 48 kHz / 448 kbps / DN -4d

FILES:

Name            Time In         Length          Size            Total Bitrate   
----            -------         ------          ----            -------------   
00003.M2TS      0:00:00.000     0:48:52.080     10 646 673 408  29 049          
00009.M2TS      0:48:52.080     0:00:01.080     288 768         2 139





Screenshots




Trailer
https://www.youtube.com/watch?v=egEGaBXG3Kg









.
المرفقات
BBC - Journey to the Center of the Earth The Restless Planet 2011 1080p BluRay Remux 3Audio-alrmothe.zip
لا تتوفر على صلاحيات كافية لتحميل هذه المرفقات.
(98 Ko) عدد مرات التنزيل 0
الرجوع الى أعلى الصفحة اذهب الى الأسفل
معاينة صفحة البيانات الشخصي للعضو
لمسة إحساس
admin

admin
avatar

تاريخ التسجيل : 30/05/2012
عدد المساهمات : 13782
نقاط التقييم : 28317
الجنس : انثى
الجنسية :
الهواية :
المزاج :
عبارتي المفضلة :
مكان الاقامة : جــــــــــــدة
العمل : في القطاع الخاص ..
الأوسمة :

مُساهمةموضوع: رد: الأرض BBC - Journey to the Center of the Earth The Restless Planet 2011 1080p BluRay Remux 3Audio-alrmothe   الثلاثاء يناير 14, 2014 10:46 pm

بـ أنتظىآر ج ـديدكـ بكل شوق ..
أرق التـ ح ـآيىآ لكـ ...
لكـ وـآفر الشكر ..
الرجوع الى أعلى الصفحة اذهب الى الأسفل
معاينة صفحة البيانات الشخصي للعضو http://mrame.forumarabia.com
حميد العامري
عضو فك القرطاسة

عضو فك القرطاسة
avatar

تاريخ التسجيل : 12/04/2013
عدد المساهمات : 84
نقاط التقييم : 84
الجنس : ذكر
الجنسية :
الهواية :
عبارتي المفضلة :
مكان الاقامة : العراق
العمل : مدرس

مُساهمةموضوع: رد: الأرض BBC - Journey to the Center of the Earth The Restless Planet 2011 1080p BluRay Remux 3Audio-alrmothe   السبت أغسطس 11, 2018 3:09 pm

موضوع مميز
واختيار رائع
بارك الله بجهودك
ننتظر جديدك الأروع
الرجوع الى أعلى الصفحة اذهب الى الأسفل
معاينة صفحة البيانات الشخصي للعضو
 
الأرض BBC - Journey to the Center of the Earth The Restless Planet 2011 1080p BluRay Remux 3Audio-alrmothe
الرجوع الى أعلى الصفحة 
صفحة 1 من اصل 1
 مواضيع مماثلة
-
» جواكت حلوة
» المادة وتحولاتها شرح رائع للدرس بالصوت والصورة
» افتراضي حـصريـا - أهداف مباراه الاهلي × انبي في الدوري المصري
» عالم الالوان_اللون الاحمر ملك الرومانسية واميرالشهية
» لن نرضى بغير كأس اسيا2011

صلاحيات هذا المنتدى:لاتستطيع الرد على المواضيع في هذا المنتدى
منتديات لمسة مرامي :: المنتديات الفنية و السينمائية :: منتدى مسلسلات التورنت torrent الأجنبية-
انتقل الى: