منتديات لمسة مرامي

 
الرئيسيةالرئيسية  بحـثبحـث  التسجيلالتسجيل  دخولدخول  

شاطر | 
 

 مدبلج للعربية Tangled Ever After 2012 Arabic 1080p x264 AC3 - alrmothe

استعرض الموضوع السابق استعرض الموضوع التالي اذهب الى الأسفل 
كاتب الموضوعرسالة
alrmothe
Professional torrent Movies

Professional torrent Movies
avatar

تاريخ التسجيل : 20/11/2012
عدد المساهمات : 150
نقاط التقييم : 410
الجنس : ذكر
الجنسية :
الأوسمة :

مُساهمةموضوع: مدبلج للعربية Tangled Ever After 2012 Arabic 1080p x264 AC3 - alrmothe   السبت ديسمبر 29, 2012 4:48 pm

.


Movies : Animation : HD1080p :Arabic








الفيلم عبارة عن فيلم قصير مدبلج للهجة المصرية العامية




IMDB:
http://www.imdb.com/title/tt2112281/
Genre:Animation | Short | Action
Source:Blu-ray Disc 7 GIB
File size:1.39 GiB
Language::Arabic
Encoder:alrmothe



Video Information
Format :Matroska
Format : AVC
Format profile : High@L4.1
Video Bit rate : 28.4 Mbps
Maximum bit rate : 33.0 Mbps
Display aspect ratio : 16:9
Frame Rate: 23.976 fps
Bit depth : 8 bits
Scan type : Progressive
Bits/(Pixel*Frame): 0.572
Stream size : 1.29 GiB (97%)
Resolution:1920x1080


Audio Information:
Format : AC-3
Bit rate mode : Constant
Bit rate : 640 Kbps
Channel(s) : 6 channels
Channel positions:Front: L C R, Side:L R,LFE
Sampling rate : 48.0 KHz
Bit depth : 16 bits
Compression mode : Lossy
Stream size : 29.7 MiB (2%)





Screenshots
















Trailer

http://www.youtube.com/watch?v=cjj5mqyszKE






للتحميل

http://arabsh.com/files/0d374d4a60f7/tangled-ever-after-2012-arabic-1080p-x264-ac3-alrmothe-zip.html







.
الرجوع الى أعلى الصفحة اذهب الى الأسفل
معاينة صفحة البيانات الشخصي للعضو
لمسة إحساس
admin

admin
avatar

تاريخ التسجيل : 30/05/2012
عدد المساهمات : 13758
نقاط التقييم : 28291
الجنس : انثى
الجنسية :
الهواية :
المزاج :
عبارتي المفضلة :
مكان الاقامة : جــــــــــــدة
العمل : في القطاع الخاص ..
الأوسمة :

مُساهمةموضوع: رد: مدبلج للعربية Tangled Ever After 2012 Arabic 1080p x264 AC3 - alrmothe   السبت ديسمبر 29, 2012 11:56 pm

دام التألق ... ودام عطاء نبضك
كل الشكر لهذا الإبداع
لك مني كل التقدير ...!!
وبآنتظار روائع جديدك بكل شوق...!
الرجوع الى أعلى الصفحة اذهب الى الأسفل
معاينة صفحة البيانات الشخصي للعضو http://mrame.forumarabia.com
KOKA
عضو منا و فينا

عضو منا و فينا
avatar

تاريخ التسجيل : 28/11/2012
عدد المساهمات : 156
نقاط التقييم : 190
الجنس : ذكر
الجنسية :

مُساهمةموضوع: رد: مدبلج للعربية Tangled Ever After 2012 Arabic 1080p x264 AC3 - alrmothe   الإثنين ديسمبر 31, 2012 12:00 am

شكرا لك على الموضوع الجميل و المفيد ♥
جزاك الله الف خير على كل ما تقدمه لهذا المنتدى ♥
ننتظر ابداعاتك الجميلة بفارغ الصبر
الرجوع الى أعلى الصفحة اذهب الى الأسفل
معاينة صفحة البيانات الشخصي للعضو
هديل الدلع
المرشحون لفريق الإشراف
المرشحون لفريق الإشراف
avatar

تاريخ التسجيل : 21/07/2012
عدد المساهمات : 495
نقاط التقييم : 903
الجنس : انثى
الجنسية :
المزاج :
عبارتي المفضلة :
مكان الاقامة : مكة المكرمة
الأوسمة :

مُساهمةموضوع: رد: مدبلج للعربية Tangled Ever After 2012 Arabic 1080p x264 AC3 - alrmothe   الإثنين ديسمبر 31, 2012 10:03 pm

رووووعة
اشكرك
الرجوع الى أعلى الصفحة اذهب الى الأسفل
معاينة صفحة البيانات الشخصي للعضو
غلا الكون
عضو فك القرطاسة

عضو فك القرطاسة
avatar

تاريخ التسجيل : 20/12/2012
عدد المساهمات : 57
نقاط التقييم : 75
الجنس : انثى
الجنسية :

مُساهمةموضوع: رد: مدبلج للعربية Tangled Ever After 2012 Arabic 1080p x264 AC3 - alrmothe   الثلاثاء يناير 01, 2013 8:06 pm

مجهود رائع منك
شكرا جزيلا لك
الرجوع الى أعلى الصفحة اذهب الى الأسفل
معاينة صفحة البيانات الشخصي للعضو
عزف الحروف
التميز

التميز
avatar

تاريخ التسجيل : 27/06/2012
عدد المساهمات : 869
نقاط التقييم : 903
الجنس : انثى
المزاج :
عبارتي المفضلة :
مكان الاقامة : السعودية
الأوسمة :

مُساهمةموضوع: رد: مدبلج للعربية Tangled Ever After 2012 Arabic 1080p x264 AC3 - alrmothe   الأربعاء يناير 02, 2013 12:11 am





:::::

ربي يسعدكـ
سلمت الايادي يعطيك العافيه ه
ننتظر جديدكـ بكل شووق

كل الود

::::



الرجوع الى أعلى الصفحة اذهب الى الأسفل
معاينة صفحة البيانات الشخصي للعضو
 
مدبلج للعربية Tangled Ever After 2012 Arabic 1080p x264 AC3 - alrmothe
استعرض الموضوع السابق استعرض الموضوع التالي الرجوع الى أعلى الصفحة 
صفحة 1 من اصل 1
 مواضيع مماثلة
-
» نهايه العالم 2012 نبؤه ام حقيقه علميه
» قرعة تصفيات كاس امم افريقيا.2012
» وداعاً للأرض هل نقولها عام 2012
» اخبار ::: تصفيات يورو 2012
» تصفيات كأس افريقيا 2012 الجولة الأولى الجزائر 1- تنزانيا 1: الخضر يخيبون أنصارهم أداء ونتيجة والجماهير تصرخ إرحل ياسعدان

صلاحيات هذا المنتدى:لاتستطيع الرد على المواضيع في هذا المنتدى
منتديات لمسة مرامي :: المنتديات الفنية و السينمائية :: منتدى الانمي وافلام الكرتون-
انتقل الى: