منتديات لمسة مرامي

 
الرئيسيةالرئيسية  بحـثبحـث  التسجيلالتسجيل  دخولدخول  

شاطر | 
 

 القراصنة مدبلج للعربية ثنائي وثلاثي الأبعاد The Pirates Band of Misfits 2012 1080p BluRay 3D H-SBS x264 2Audio (English,Arabic)- alrmothe

استعرض الموضوع السابق استعرض الموضوع التالي اذهب الى الأسفل 
كاتب الموضوعرسالة
alrmothe
Professional torrent Movies

Professional torrent Movies
avatar

تاريخ التسجيل : 20/11/2012
عدد المساهمات : 150
نقاط التقييم : 410
الجنس : ذكر
الجنسية :
الأوسمة :

مُساهمةموضوع: القراصنة مدبلج للعربية ثنائي وثلاثي الأبعاد The Pirates Band of Misfits 2012 1080p BluRay 3D H-SBS x264 2Audio (English,Arabic)- alrmothe   الإثنين فبراير 11, 2013 9:09 pm

.

Movies : Animation : BluRay : 2Audio


ضغطت الفيلم بثلاثي الأبعاد وثنائي الأبعاد من قرص الحجم قبل الضغط 95 جيجا
وكل فيلم وضعته في ملف تورنت لكي تستطيعوا تحميل اي ملف تورنت تريدونه و كلاهما في ملف مضغوط ( ون زيب )


ثلاثي الأبعاد واسم ملف التورنت

يعمل فقط على شاشات تدعم تقنية 3D وأجهزة الكمبيوتر التي تدعم هذه التقنية

The Pirates Band of Misfits 2012 1080p BluRay 3D H-SBS x264 2Audio (English,Arabic)- alrmothe

ضغطت الفيلم باللغتين العربية والانجيلزية








IMDB:
http://www.imdb.com/title/tt1430626/
Genre: Animation | Adventure | Comedy
Source:Blu-ray Disc 3D
Language:English,Arabic
File size:6.61 GiB
Overall bit rate:10.8 Mbps
Duration:1h 28mn
Encoded / Released By:alrmothe


Storyline:After years of humiliation and failed attempts to win the coveted Pirate of the Year Award, Pirate Captain and his oddball crew take on the cream of the pirating crop - Black Bellamy


القصة : وعد القبطان أصدقائه القراصنة بإصلاح قاربهم وصيانته، وأن يتغلب على عدوه اللدود ومنافسه الأوحد بلاك بيلامي، وبمساعده أصدقائه تبدأ مغامراتهم في إحدى الجزر الغريبة والتي يطلق عليها جزيرة الدم، ثم يصلون إلى مدينة لندن الضبابية حيث يقابلون ملكة بريطانيا، وعلى طول الطريق يقاتلون‬ ويقتتلون من أجل توحيد كلمتهم وقوتهم والفوز بإحدى الجوائز. ‫


cast
Hugh Grant...The Pirate Captain (voice)
Martin Freeman...The Pirate with a Scarf (voice)
Imelda Staunton ...Queen Victoria (voice)
David Tennant...Charles Darwin (voice)
Jeremy Piven...Black Bellamy (voice)
Salma Hayek...Cutlass Liz (voice)


Video Information
Format: Matroska
Format: AVC
Format/Info : Advanced Video Codec
Format profile: High@L5.1
Format settings, CABAC: Yes
Format settings, ReFrames: 2 frames
Muxing mode: Header stripping
Codec ID: V_MPEG4/ISO/AVC
Bit rate: 8387 Kbps
Frame rate mode: Constant
Frame rate: 23.976 fps
Color space: YUV
Chroma subsampling: 4:2:0
Bit depth: 8 bits
Scan type: Progressive
Bits/(Pixel*Frame): 0.169
Stream size: 5.16 GiB (78%
Resolution:1920x1080


Audio Information:
Audio #1
Format : DTS
Format/Info : Digital Theater Systems
Mode : 16
Format settings, Endianness : Big
Muxing mode : Header stripping
Codec ID : A_DTS
Duration : 1h 28mn
Bit rate mode : Constant
Bit rate : 1509 Kbps
Channel(s) : 6 channels
Channel positions : Front: L C R, Side: L R, LFE
Sampling rate : 48.0 KHz
Bit depth : 24 bits
Compression mode : Lossy
Stream size : 951 GiB (14%)
Language:English



Audio #2
ID : 3
Format: AC-3
Format/Info : Audio Coding 3
Mode extension: CM (complete main)
Format settings, Endianness: Big
Muxing mode : Header stripping
Codec ID : A_AC3
Duration: 1h 28mn
Bit rate mode: Constant
Bit rate : 640 Kbps
Channel(s): 6 channels
Channel positions: Front: L C R, Side: L R, LFE
Sampling rate: 48.0 KHz
Bit depth: 16 bits
Compression mode: Lossy
Stream size: 403 MiB (6%)
Language:Arabic




SUB:NON


Screenshots








ثنائي الأبعاد واسم ملف التورنت
The Pirates Band of Misfits 2012 Arabic 1080p X264-alrmothe

قناة صوتية واحدة وهي العربية






قريباُ الفيلم العربي غش الزوجية 2012




الكود:

http://fr33dom.h33t.com:3310/announce
http://121.14.98.151:9090/announce
http://tracker.ex.ua/announce
http://tracker.torrentbay.to:6969/announce
http://exodus.desync.com:6969/announce
http://94.228.192.98/announce
http://tracker.coppersurfer.tk:6969/announce
udp://tracker.istole.it:80/announce
udp://fr33dom.h33t.com:3310/announce






Trailer



.
المرفقات
The Pirates Band of Misfits 2012 1080p BluRay 3D H-SBS x264 2Audio - alrmothe.zip
لا تتوفر على صلاحيات كافية لتحميل هذه المرفقات.
(41 Ko) عدد مرات التنزيل 1
الرجوع الى أعلى الصفحة اذهب الى الأسفل
معاينة صفحة البيانات الشخصي للعضو
امين
رئاسة المنتديات العامة و الاسلامية
رئاسة المنتديات العامة و الاسلامية
avatar

تاريخ التسجيل : 25/10/2012
عدد المساهمات : 7750
نقاط التقييم : 10292
الجنس : ذكر
الجنسية :
المزاج :
عبارتي المفضلة :
الأوسمة :

مُساهمةموضوع: رد: القراصنة مدبلج للعربية ثنائي وثلاثي الأبعاد The Pirates Band of Misfits 2012 1080p BluRay 3D H-SBS x264 2Audio (English,Arabic)- alrmothe   الإثنين فبراير 11, 2013 10:48 pm

شكرا على الموضوع الاكثر من رائع
بارك الله فيك
في انتظار جديدك

تقبل تحياتي


الرجوع الى أعلى الصفحة اذهب الى الأسفل
معاينة صفحة البيانات الشخصي للعضو
لمسة إحساس
admin

admin
avatar

تاريخ التسجيل : 30/05/2012
عدد المساهمات : 13758
نقاط التقييم : 28291
الجنس : انثى
الجنسية :
الهواية :
المزاج :
عبارتي المفضلة :
مكان الاقامة : جــــــــــــدة
العمل : في القطاع الخاص ..
الأوسمة :

مُساهمةموضوع: رد: القراصنة مدبلج للعربية ثنائي وثلاثي الأبعاد The Pirates Band of Misfits 2012 1080p BluRay 3D H-SBS x264 2Audio (English,Arabic)- alrmothe   الإثنين فبراير 11, 2013 11:58 pm


ربي لايحرمنًا من روائٍع اطروحاتك المميزه ..~
يعآفيك المولى يْ رب ..~
و يسلم آيديكّ ..~
لكـ مني اجمل التحاايا ..~

الرجوع الى أعلى الصفحة اذهب الى الأسفل
معاينة صفحة البيانات الشخصي للعضو http://mrame.forumarabia.com
EGYKENZ
Friends

Friends
avatar

تاريخ التسجيل : 09/01/2013
عدد المساهمات : 230
نقاط التقييم : 244
الجنس : ذكر
الجنسية :
الأوسمة :

مُساهمةموضوع: رد: القراصنة مدبلج للعربية ثنائي وثلاثي الأبعاد The Pirates Band of Misfits 2012 1080p BluRay 3D H-SBS x264 2Audio (English,Arabic)- alrmothe   الأربعاء فبراير 13, 2013 1:30 am

طرح اكثر من رائع ..
سلمت اناملك على الطرح الجميل ..,,
وجزاك الله خير الجزآء ~ ..
الرجوع الى أعلى الصفحة اذهب الى الأسفل
معاينة صفحة البيانات الشخصي للعضو
عزف الحروف
التميز

التميز
avatar

تاريخ التسجيل : 27/06/2012
عدد المساهمات : 869
نقاط التقييم : 903
الجنس : انثى
المزاج :
عبارتي المفضلة :
مكان الاقامة : السعودية
الأوسمة :

مُساهمةموضوع: رد: القراصنة مدبلج للعربية ثنائي وثلاثي الأبعاد The Pirates Band of Misfits 2012 1080p BluRay 3D H-SBS x264 2Audio (English,Arabic)- alrmothe   السبت فبراير 16, 2013 3:46 pm

طرح راقي وجميل
يعطيك العافية
ع المجهود المميز
شكرا لك
الرجوع الى أعلى الصفحة اذهب الى الأسفل
معاينة صفحة البيانات الشخصي للعضو
الجنونه
عضو فك القرطاسة

عضو فك القرطاسة
avatar

تاريخ التسجيل : 16/02/2013
عدد المساهمات : 70
نقاط التقييم : 70
الجنس : انثى
الجنسية :

مُساهمةموضوع: رد: القراصنة مدبلج للعربية ثنائي وثلاثي الأبعاد The Pirates Band of Misfits 2012 1080p BluRay 3D H-SBS x264 2Audio (English,Arabic)- alrmothe   الأربعاء فبراير 27, 2013 2:54 am

♥♥♥ دمتم لنا بالتالق الدائم ♥♥♥♥








♥♥♥♥سلمت اليد الي كتبت ♥♥♥





♥♥♥
الله يديم لنا هذا الابداع والتميز♥♥♥♥









♥♥♥♥ مع خالص الاحترام لكم ♥♥♥





♥♥♥♥ ♥♥♥
الرجوع الى أعلى الصفحة اذهب الى الأسفل
معاينة صفحة البيانات الشخصي للعضو
 
القراصنة مدبلج للعربية ثنائي وثلاثي الأبعاد The Pirates Band of Misfits 2012 1080p BluRay 3D H-SBS x264 2Audio (English,Arabic)- alrmothe
استعرض الموضوع السابق استعرض الموضوع التالي الرجوع الى أعلى الصفحة 
صفحة 1 من اصل 1
 مواضيع مماثلة
-
» تقرير عن Mōretsu Pirates
» السلسلةالشهيرة( Pirates Of The Caribbean ) قراصنة الكاريبي كاملة وبجودة ديفيدي (مترجمة)
» افتراضي حـصريـا - أهداف مباراه الاهلي × انبي في الدوري المصري
» ومضات من إختياري
» نهايه العالم 2012 نبؤه ام حقيقه علميه

صلاحيات هذا المنتدى:لاتستطيع الرد على المواضيع في هذا المنتدى
منتديات لمسة مرامي :: المنتديات الفنية و السينمائية :: منتدى الانمي وافلام الكرتون-
انتقل الى: