منتديات لمسة مرامي

 
الرئيسيةالرئيسية  بحـثبحـث  التسجيلالتسجيل  دخولدخول  

شاطر | 
 

 فيلم جدو حبيبي Jeddo Habibi 2012 Arabic DVDRip X264 ACC - alrmothe

اذهب الى الأسفل 
كاتب الموضوعرسالة
alrmothe
Professional torrent Movies

Professional torrent Movies
avatar

تاريخ التسجيل : 20/11/2012
عدد المساهمات : 150
نقاط التقييم : 410
الجنس : ذكر
الجنسية :
الأوسمة :

مُساهمةموضوع: فيلم جدو حبيبي Jeddo Habibi 2012 Arabic DVDRip X264 ACC - alrmothe   السبت مارس 16, 2013 1:16 am

.


Movies : Drama: DVD :Arabic

Jeddo Habibi 2012 Arabic DVDRip X264 ACC - alrmothe







القصة : تدور قصة الفيلم فى إطار اجتماعي كوميدي حول فتاة شابة تدعى فكرية (بشرى) تعيش عمرها كله خارج مصر بمدينة لندن ولم تلتق مع جدها حسين (محمود ياسين) مطلقا؛ تقرر فجأة التواصل معه عندما تعود إلي مصر عقب أن ارسل لها طبيب المستشفى (يوسف داود) رسالة إلكترونية يخبرها بمرض جدها الشديد وقرب أجله ورغبة الجد في رؤيتها، فتعود فكرية أو فيكي كما تحب أن يناديها الجميع إلى مصر؛ طمعا في الحصول على ميراثها من جدها وخاصة عقب فقدها لجميع أموالها بالمضاربة في البورصة. تفاجأ فيكي بثراء جدها الفاحش، وتحاول التأقلم مع حياتها الجديدة برفقة جدها وتقع الكثير من المقالب والمفارقات بين الجد والحفيدة التي تحاول إسعاد جدها بالبحث عن حبيبته السابقة ليلى عبد الغفار (لبنى عبد العزيز) التي تقيم في مدينة الفيوم، فتعزم الأمر على السفر لها برفقة جدها وهناك تقع في حب (أحمد فهمي) حفيد ليلى وتظن أن أحلامها استكملت بلقاء الحبيب، إلا أن القدر يسرق تلك الفرحة عندما يتوفى جدها حسين موصيا بزواجها من خطيبها.



elcinema:
http://www.elcinema.com/work/wk1411403/
Genre:Drama | Romance | Comedy
Source:DVD Disc
Language:Arabic
File size:2.23 GiB
Overall bit rate:2851 Kbps
Duration:1h 51mn 55s
Encoded / Released By:alrmothe



cast
Mahmoud Yassin ... Grand Hussein
Bushra ... Vkriah
Ahmed Fahmy .... Adam

بطولة




Video Information
Format :mp4
Format : AVC
Format/Info : Advanced Video Codec
Format profile : High@L3.0
Runtime: 1h 51min 55sec
bit rate: 2675 Kbps
Bit depth : 8 bits
Bits/(Pixel*Frame) : 0.258
Stream size : 2.06 GiB (94%)
Resolution:720x576


Audio Information:
Format: ACC
Bit rate: 172 Kbps
Sampling rate: 48.0 KHz
Channel(s): 2 channels
Stream size : 137 MiB (8%)
Language:Arabic

SUB:NON


المصدر قرص DVD


مقطع من الفيلم لتبين الجودة
sample

https://hotfile.com/dl/198386979/2d0e1ba/sample.mp4.html


Screenshots










الكود:

http://fr33dom.h33t.com:3310/announce
http://121.14.98.151:9090/announce
http://tracker.ex.ua/announce
http://p2pdl.com:2710/announce
http://exodus.desync.com:6969/announce
http://94.228.192.98/announce
http://tracker.coppersurfer.tk:6969/announce
udp://tracker.istole.it:80/announce
udp://fr33dom.h33t.com:3310/announce


You can play movie on













Trailer
https://www.youtube.com/watch?v=BFycUszLM1A













.
المرفقات
Jeddo Habibi 2012 Arabic DVDRip X264 ACC - alrmothe.zip
لا تتوفر على صلاحيات كافية لتحميل هذه المرفقات.
(13 Ko) عدد مرات التنزيل 2
الرجوع الى أعلى الصفحة اذهب الى الأسفل
معاينة صفحة البيانات الشخصي للعضو
لمسة إحساس
admin

admin
avatar

تاريخ التسجيل : 30/05/2012
عدد المساهمات : 13782
نقاط التقييم : 28317
الجنس : انثى
الجنسية :
الهواية :
المزاج :
عبارتي المفضلة :
مكان الاقامة : جــــــــــــدة
العمل : في القطاع الخاص ..
الأوسمة :

مُساهمةموضوع: رد: فيلم جدو حبيبي Jeddo Habibi 2012 Arabic DVDRip X264 ACC - alrmothe   السبت مارس 16, 2013 10:04 pm

مواضيعك متميزة

لا عدمنا التميز و روعة الاختيار

دمت لنا ودام تالقك الدائم



تم التحميل
الرجوع الى أعلى الصفحة اذهب الى الأسفل
معاينة صفحة البيانات الشخصي للعضو http://mrame.forumarabia.com
alfahloy
Friends

Friends
avatar

تاريخ التسجيل : 01/01/2013
عدد المساهمات : 608
نقاط التقييم : 618
الجنس : ذكر
الجنسية :
الهواية :
عبارتي المفضلة :
مكان الاقامة : egypt
العمل : مهندس
الأوسمة :

مُساهمةموضوع: رد: فيلم جدو حبيبي Jeddo Habibi 2012 Arabic DVDRip X264 ACC - alrmothe   السبت مارس 16, 2013 11:32 pm


تسلم ايديك على الموضوع
ننتظر المزيد من ابداعاتك
الى الامام دائما
تحياتى وتقديرى

الرجوع الى أعلى الصفحة اذهب الى الأسفل
معاينة صفحة البيانات الشخصي للعضو
دووولي شاهين
Supervisor

Supervisor
avatar

تاريخ التسجيل : 21/06/2012
عدد المساهمات : 296
نقاط التقييم : 396
الجنس : انثى
المزاج :
عبارتي المفضلة :
الأوسمة :

مُساهمةموضوع: رد: فيلم جدو حبيبي Jeddo Habibi 2012 Arabic DVDRip X264 ACC - alrmothe   الجمعة مارس 29, 2013 9:57 am

يعطيك العافية
تسلم
الرجوع الى أعلى الصفحة اذهب الى الأسفل
معاينة صفحة البيانات الشخصي للعضو
امين
رئاسة المنتديات العامة و الاسلامية
رئاسة المنتديات العامة و الاسلامية
avatar

تاريخ التسجيل : 25/10/2012
عدد المساهمات : 7750
نقاط التقييم : 10292
الجنس : ذكر
الجنسية :
المزاج :
عبارتي المفضلة :
الأوسمة :

مُساهمةموضوع: رد: فيلم جدو حبيبي Jeddo Habibi 2012 Arabic DVDRip X264 ACC - alrmothe   الجمعة مارس 29, 2013 6:49 pm

طرح رائع وجميل وقيم جداااااااااااااشكرى وتقديرى
الرجوع الى أعلى الصفحة اذهب الى الأسفل
معاينة صفحة البيانات الشخصي للعضو
دموع السراب
عضو بقراطيسه

عضو بقراطيسه
avatar

تاريخ التسجيل : 14/01/2013
عدد المساهمات : 25
نقاط التقييم : 25
الجنس : انثى
الجنسية :

مُساهمةموضوع: رد: فيلم جدو حبيبي Jeddo Habibi 2012 Arabic DVDRip X264 ACC - alrmothe   الإثنين أبريل 01, 2013 11:59 pm

جزاكي الله علي الفيلم
ان شاء الله بحمله
الرجوع الى أعلى الصفحة اذهب الى الأسفل
معاينة صفحة البيانات الشخصي للعضو
abuahmad
Friends

Friends
avatar

تاريخ التسجيل : 24/09/2012
عدد المساهمات : 349
نقاط التقييم : 349
الجنس : ذكر
الجنسية :
المزاج :
عبارتي المفضلة :
الأوسمة :

مُساهمةموضوع: رد: فيلم جدو حبيبي Jeddo Habibi 2012 Arabic DVDRip X264 ACC - alrmothe   الجمعة أبريل 26, 2013 2:18 am

موضوع رائع

وطرح مميز

شكرااا على الابداع

فى انتظار المزيد

خالص تحياتى
الرجوع الى أعلى الصفحة اذهب الى الأسفل
معاينة صفحة البيانات الشخصي للعضو
 
فيلم جدو حبيبي Jeddo Habibi 2012 Arabic DVDRip X264 ACC - alrmothe
الرجوع الى أعلى الصفحة 
صفحة 1 من اصل 1
 مواضيع مماثلة
-
» نهايه العالم 2012 نبؤه ام حقيقه علميه
» قرعة تصفيات كاس امم افريقيا.2012
» وداعاً للأرض هل نقولها عام 2012
» اخبار ::: تصفيات يورو 2012
» تصفيات كأس افريقيا 2012 الجولة الأولى الجزائر 1- تنزانيا 1: الخضر يخيبون أنصارهم أداء ونتيجة والجماهير تصرخ إرحل ياسعدان

صلاحيات هذا المنتدى:لاتستطيع الرد على المواضيع في هذا المنتدى
منتديات لمسة مرامي :: المنتديات الفنية و السينمائية :: منتدى افلام و مسلسلات التورنت torrent العربية-
انتقل الى: