منتديات لمسة مرامي

 
الرئيسيةالرئيسية  بحـثبحـث  التسجيلالتسجيل  دخولدخول  

شاطر | 
 

 أخي الدب مدبلج للعربية Brothe Bear 2003 1080p BluRay x264 2Audio (English,Arabic) - alrmothe

استعرض الموضوع السابق استعرض الموضوع التالي اذهب الى الأسفل 
كاتب الموضوعرسالة
alrmothe
Professional torrent Movies

Professional torrent Movies
avatar

تاريخ التسجيل : 20/11/2012
عدد المساهمات : 150
نقاط التقييم : 410
الجنس : ذكر
الجنسية :
الأوسمة :

مُساهمةموضوع: أخي الدب مدبلج للعربية Brothe Bear 2003 1080p BluRay x264 2Audio (English,Arabic) - alrmothe   الثلاثاء مارس 19, 2013 11:28 pm

.

Movies : Animation : BluRay : 2Audio


Brothe Bear 2003 1080p BluRay x264 2Audio (English,Arabic) - alrmothe







ضغت الفيلم بقناتين الإنجليزية والعربية

مدبلج للعامية المصرية


IMDB:
http://www.imdb.com/title/tt0328880/
Genre:Animation | Adventure | Family
Source:Blu-ray Disc
Language:English,Arabic
File size:4.60 GiB
Overall bit rate:7740 Kbps
Duration:1h 25mn
Encoded / Released By:alrmothe


Storyline:Kenai, a man who resents bears after a fight with one kills his older brother, is turned into a bear so he can see life from a different perspective


القصة: فتى يرغب بأن يكون رجلاً وعندما أصبح رجلاً قتل دباً فتحول إلى دب



cast
Joaquin Phoenix ... Kenai (voice)
Jeremy Suarez ... Koda (voice)
Jason Raize ... Denahi (voice)
Rick Moranis ... Rutt (voice)
Dave Thomas ... Tuke (voice)


Video Information
Format: Matroska

Format : AVC
Bit rate : 5845 Kbps
Display aspect ratio : 16:9
Frame rate : 23.976 fps
Color space : YUV
Chroma subsampling : 4:2:0
Bit depth : 8 bits
Bits/(Pixel*Frame) : 0.156
Stream size: 3.38 GiB (74%)
Resolution:1920x816


Audio Information:
Audio #1
Format: DTS
Compression mode: Lossy
Stream size: 918 MiB (19%)
Language:English



Audio #2
ID : 3
Format : AC3
Stream size : 234 GiB (5%)
Language : Arabic
Language:Arabic



كل الترجمات موجودة في ملف اسمه SUB
SUBEnglish,Arabic,French,Dutch



Screenshots








الكود:

http://fr33dom.h33t.com:3310/announce
http://121.14.98.151:9090/announce
http://tracker.ex.ua/announce
http://tracker.torrentbay.to:6969/announce
http://exodus.desync.com:6969/announce
http://94.228.192.98/announce
http://tracker.coppersurfer.tk:6969/announce
udp://tracker.istole.it:80/announce
udp://fr33dom.h33t.com:3310/announce






Trailer
http://www.youtube.com/watch?v=B80VKbxZs6E




.
المرفقات
Brothe Bear 2003 1080p BluRay x264 2Audio - alrmothe.zip
لا تتوفر على صلاحيات كافية لتحميل هذه المرفقات.
(14 Ko) عدد مرات التنزيل 3
الرجوع الى أعلى الصفحة اذهب الى الأسفل
معاينة صفحة البيانات الشخصي للعضو
لمسة إحساس
admin

admin
avatar

تاريخ التسجيل : 30/05/2012
عدد المساهمات : 13758
نقاط التقييم : 28291
الجنس : انثى
الجنسية :
الهواية :
المزاج :
عبارتي المفضلة :
مكان الاقامة : جــــــــــــدة
العمل : في القطاع الخاص ..
الأوسمة :

مُساهمةموضوع: رد: أخي الدب مدبلج للعربية Brothe Bear 2003 1080p BluRay x264 2Audio (English,Arabic) - alrmothe   الأربعاء مارس 20, 2013 12:52 am

تم التحميل و النشر
كل الشكر لهذا الإبداع
لك مني كل التقدير ...!!
وبآنتظار روائع جديدك بكل شوق...!
ارق التحآيآ لك

الرجوع الى أعلى الصفحة اذهب الى الأسفل
معاينة صفحة البيانات الشخصي للعضو http://mrame.forumarabia.com
alfahloy
Friends

Friends
avatar

تاريخ التسجيل : 01/01/2013
عدد المساهمات : 608
نقاط التقييم : 618
الجنس : ذكر
الجنسية :
الهواية :
عبارتي المفضلة :
مكان الاقامة : egypt
العمل : مهندس
الأوسمة :

مُساهمةموضوع: رد: أخي الدب مدبلج للعربية Brothe Bear 2003 1080p BluRay x264 2Audio (English,Arabic) - alrmothe   الأربعاء مارس 20, 2013 12:55 am


مجهود رائع يستحق التقدير والاعجاب
ننتظر الجديد والمفيد من ابداعك المتميز
تحياتى وتقديرى
الرجوع الى أعلى الصفحة اذهب الى الأسفل
معاينة صفحة البيانات الشخصي للعضو
دووولي شاهين
Supervisor

Supervisor
avatar

تاريخ التسجيل : 21/06/2012
عدد المساهمات : 296
نقاط التقييم : 396
الجنس : انثى
المزاج :
عبارتي المفضلة :
الأوسمة :

مُساهمةموضوع: رد: أخي الدب مدبلج للعربية Brothe Bear 2003 1080p BluRay x264 2Audio (English,Arabic) - alrmothe   الجمعة مارس 29, 2013 9:57 am

يعطيك العافية
تسلم
الرجوع الى أعلى الصفحة اذهب الى الأسفل
معاينة صفحة البيانات الشخصي للعضو
امين
رئاسة المنتديات العامة و الاسلامية
رئاسة المنتديات العامة و الاسلامية
avatar

تاريخ التسجيل : 25/10/2012
عدد المساهمات : 7750
نقاط التقييم : 10292
الجنس : ذكر
الجنسية :
المزاج :
عبارتي المفضلة :
الأوسمة :

مُساهمةموضوع: رد: أخي الدب مدبلج للعربية Brothe Bear 2003 1080p BluRay x264 2Audio (English,Arabic) - alrmothe   الجمعة مارس 29, 2013 6:50 pm

طرح رائع وجميل وقيم جداااااااااااااشكرى وتقديرى


الرجوع الى أعلى الصفحة اذهب الى الأسفل
معاينة صفحة البيانات الشخصي للعضو
 
أخي الدب مدبلج للعربية Brothe Bear 2003 1080p BluRay x264 2Audio (English,Arabic) - alrmothe
استعرض الموضوع السابق استعرض الموضوع التالي الرجوع الى أعلى الصفحة 
صفحة 1 من اصل 1
 مواضيع مماثلة
-
» english cake
» اسطوانة ( ازهار الروضة Kg1 ) اكثر من رائع اوعى تفوتك
» نموذج امتحان اللغة الانجليزية للصف الخامس الابتدائى اوعى يفوتك
» جميع مذكرات وحدات الترم الأول - اللغة الانجليزية الصف الاول الثانوى
» تحدث الإنجليزية بطلاقة مع : دورة المحادثة الإنجليزية English Conversational Course

صلاحيات هذا المنتدى:لاتستطيع الرد على المواضيع في هذا المنتدى
منتديات لمسة مرامي :: المنتديات الفنية و السينمائية :: منتدى الانمي وافلام الكرتون-
انتقل الى: