منتديات لمسة مرامي

 
الرئيسيةالرئيسية  بحـثبحـث  التسجيلالتسجيل  دخولدخول  

شاطر | 
 

 الجزء الثاني أخي الدب مدبلج للعربية Brother Bear 2 2006 1080p BluRay x264 2Audio (English,Arabic) - alrmothe

استعرض الموضوع السابق استعرض الموضوع التالي اذهب الى الأسفل 
كاتب الموضوعرسالة
alrmothe
Professional torrent Movies

Professional torrent Movies
avatar

تاريخ التسجيل : 20/11/2012
عدد المساهمات : 150
نقاط التقييم : 410
الجنس : ذكر
الجنسية :
الأوسمة :

مُساهمةموضوع: الجزء الثاني أخي الدب مدبلج للعربية Brother Bear 2 2006 1080p BluRay x264 2Audio (English,Arabic) - alrmothe   الجمعة أبريل 05, 2013 4:40 am

.

قبل البدء في الموضوع أرجو قراءة هذه الملاحظة المهمة

انتشرت في مواقع التورنت العامة الأجنبية منذ فترة قريبة أفلام عربية وأجنبية مزيفة باسمي alrmothe
حيث لي بعالم التورنت أكثر من 7 سنوات وفي ذلك الوقت انتشرت أفلام اجنبية مزيفة باسمي مما أضطررت للإبتعاد عن ضغط وإنتاج الأفلام فترة والعودة مرة أخرى لضغط افلام و الإنقطاع لفترات ثم العودة مرة اخرى أما الآن وللأسف انتشرت أفلام عربية مزيفة باسمي فأنا بريء من جميع الأفلام المزيفة (سواءً العربية أو الأجنبية ) كبراءة الذئب من دم ابن يعقوب .


الأفلام المزيفة عبارة عن مقطع لمدة دقيقة لكن الأحجام كبيرة بحجم الافلام المضغوطة

وبالصورة التي بالأسفل لإحدى مواقع التورنت التي أنتشر فيها فيلم عربي مزيف باسمي ومضغوط الفيلم ببرنامج ون رار وكذلك ملف مفكرة الرقم السري والمقصد من رفع الافلام المزيفة تشويه للشخص أو الإضرار بأجهزة الآخرين لأن أغلب هذه الملفات المزيفة عبارة عن فيروسات





Movies : Animation : BluRay : 2Audio


Brother Bear 2 2006 1080p BluRay x264 2Audio (English,Arabic) - alrmothe







ضغطت الفيلم بقناتين الإنجليزية والعربية


IMDB:
http://www.imdb.com/title/tt0465925/
Genre:Animation | Adventure | Family
Source:Blu-ray Disc
Language:English,Arabic
File size:4.47 GiB
Overall bit rate:8721 Kbps
Duration:1h 13mn
Encoded / Released By:alrmothe


Storyline:Kenai, still a bear and Koda strongly believe that they do not need any girl, just each other. Kenai dreams of Nita, a girl he had met and saved when he was very young. After giving her an


القصة: تكلمة للجزء الأول فكناي الرجل الذي تحول إلى دب يلتقي بقتاة فيتمنى بأنه يعود إلى انسان من بعد ما أغرم بالفتاة


cast
Joaquin Phoenix ... Kenai (voice)
Mandy Moore ... Nita (voice)
Jeremy Suarez ... Koda (voice)
Jason Raize ... Denahi (voice)
Rick Moranis ... Rutt (voice)
Dave Thomas ... Tuke (voice)


Video Information
Format: Matroska
Bit rate : 7010 Kbps
Display aspect ratio : 16:9
Frame rate : 23.976 fps
Bit depth : 8 bits
Scan type : Progressive
Bits/(Pixel*Frame) : 0.141
Stream size: 3.51 GiB (79%)
Resolution:1920x1080


Audio Information:
Audio #1
Format: DTS
Bit rate mode: Constant
Bit rate : 1 509 Kbps
Channel(s) : 6 channels
Channel positions: Front: L C R, Side: L R, LFE
Sampling rate: 48.0 KHz
Bit depth: 24 bits
Stream size: 793 MiB (17%)
Language:English


Audio #2
Format : AC3
Bit rate :192Kbps
Channel(s) : 2 channels
Channel positions : Front: L C R, Side: L R, LFE
Sampling rate : 48.0 KHz
Bit depth : 16 bits
Stream size : 101 GiB (2%)
Language:Arabic



كل الترجمات مرفقه مع الفيلم ما عليكم سوى اختيار اللغة التي تريدونها
SUB: English,Arabic,French,Danish



Screenshots












الكود:

http://fr33dom.h33t.com:3310/announce
http://121.14.98.151:9090/announce
http://tracker.ex.ua/announce
http://tracker.torrentbay.to:6969/announce
http://exodus.desync.com:6969/announce
http://94.228.192.98/announce
http://tracker.coppersurfer.tk:6969/announce
udp://tracker.istole.it:80/announce
udp://fr33dom.h33t.com:3310/announce






Trailer
http://www.youtube.com/watch?v=_9SV0q1A1_4





.
المرفقات
Brother Bear 2 2006 1080p BluRay x264 2Audio - alrmothe.zip
لا تتوفر على صلاحيات كافية لتحميل هذه المرفقات.
(13 Ko) عدد مرات التنزيل 1
الرجوع الى أعلى الصفحة اذهب الى الأسفل
معاينة صفحة البيانات الشخصي للعضو
لمسة إحساس
admin

admin
avatar

تاريخ التسجيل : 30/05/2012
عدد المساهمات : 13758
نقاط التقييم : 28291
الجنس : انثى
الجنسية :
الهواية :
المزاج :
عبارتي المفضلة :
مكان الاقامة : جــــــــــــدة
العمل : في القطاع الخاص ..
الأوسمة :

مُساهمةموضوع: رد: الجزء الثاني أخي الدب مدبلج للعربية Brother Bear 2 2006 1080p BluRay x264 2Audio (English,Arabic) - alrmothe   الجمعة أبريل 05, 2013 4:57 am

شكرا على التنبية
انا متابعة مواقع تورنت و فعلا بشوف فيها اسمك و لاحظته
زي ما بتكتبه انت الان في مواضيعك
الله يوفقك يا رب على من عاداك

و بالنسبة للفيلم
يسلمواااااااااااااا ع الطرح الرااااااااقى
صراحة اسلوبك في طرح المواضيع يدل عليك
... دام لنا هذا التمييز و الإبداع
الرجوع الى أعلى الصفحة اذهب الى الأسفل
معاينة صفحة البيانات الشخصي للعضو http://mrame.forumarabia.com
دووولي شاهين
Supervisor

Supervisor
avatar

تاريخ التسجيل : 21/06/2012
عدد المساهمات : 296
نقاط التقييم : 396
الجنس : انثى
المزاج :
عبارتي المفضلة :
الأوسمة :

مُساهمةموضوع: رد: الجزء الثاني أخي الدب مدبلج للعربية Brother Bear 2 2006 1080p BluRay x264 2Audio (English,Arabic) - alrmothe   الجمعة أبريل 05, 2013 4:09 pm

شكرا مرة روعة
بالتوفيق
الرجوع الى أعلى الصفحة اذهب الى الأسفل
معاينة صفحة البيانات الشخصي للعضو
alrmothe
Professional torrent Movies

Professional torrent Movies
avatar

تاريخ التسجيل : 20/11/2012
عدد المساهمات : 150
نقاط التقييم : 410
الجنس : ذكر
الجنسية :
الأوسمة :

مُساهمةموضوع: رد: الجزء الثاني أخي الدب مدبلج للعربية Brother Bear 2 2006 1080p BluRay x264 2Audio (English,Arabic) - alrmothe   السبت أبريل 06, 2013 2:40 am

لمسة العفو أنا أرفع الأفلام في بعض مواقع التورنت الأجنبية العامة ولكن هذه المواقع هي المصدر ( تقريباً 15 موقع أرفع فيها لأنني عضو فيها من سنوات وتعتبر المصدر لملفات التورنت ) أما بقية مواقع التورنت العامة فتنقل الأفلام إليها من المصدر .

من كثرة الافلام المزيفة اغلب الموقع اتخذت إجراء بعدم السماح للأعضاء المسجلين حديثاً بالرفع ويقتصر رفع الملفات فقط على الاعضاء القدامى

فوضعت مواضيع في منتديات مواقع التورنت بأن يطلب العضو من ادارة الموقع بأنه يستطيع رفع الملفات واذا ثبت جدارته وعدم وضعه ملفات مزيفه يرقى الى رافع Uploader او عضو في اي بي vip لكي يعطى الصلاحية الكاملة في رفع الملفات

اللهم آمين وجزاك الله خير

ويسلمك ربي


دوولي شاهين العفو
الرجوع الى أعلى الصفحة اذهب الى الأسفل
معاينة صفحة البيانات الشخصي للعضو
 
الجزء الثاني أخي الدب مدبلج للعربية Brother Bear 2 2006 1080p BluRay x264 2Audio (English,Arabic) - alrmothe
استعرض الموضوع السابق استعرض الموضوع التالي الرجوع الى أعلى الصفحة 
صفحة 1 من اصل 1
 مواضيع مماثلة
-
» للبيع لومينا رويال 2006
» اجمل أهداف مونديال 2006
» حصريا معشوقة الجماهير Pro Evolution Soccer 2006 بتعليق الشوالي ومدحت شلبي بحجم 660 MB
» مصارعة 2006
» حصرى :: المسلسل الكارتونى الرائع :: بــكــــار :: موسم :: 2006 :: كاملا

صلاحيات هذا المنتدى:لاتستطيع الرد على المواضيع في هذا المنتدى
منتديات لمسة مرامي :: المنتديات الفنية و السينمائية :: منتدى الانمي وافلام الكرتون-
انتقل الى: