منتديات لمسة مرامي

 
الرئيسيةالرئيسية  بحـثبحـث  التسجيلالتسجيل  دخولدخول  

شاطر | 
 

 على جثتي a`ala gothaty 2013 Arabic Dvd x264 AC3 - alrmothe

اذهب الى الأسفل 
كاتب الموضوعرسالة
alrmothe
Professional torrent Movies

Professional torrent Movies
avatar

تاريخ التسجيل : 20/11/2012
عدد المساهمات : 150
نقاط التقييم : 410
الجنس : ذكر
الجنسية :
الأوسمة :

مُساهمةموضوع: على جثتي a`ala gothaty 2013 Arabic Dvd x264 AC3 - alrmothe   الثلاثاء يونيو 18, 2013 5:27 am

.


Movies : Drama: DVD :Arabic

a`ala gothaty 2013 Arabic Dvd x264 AC3 - alrmothe





elcinema:
http://www.elcinema.com/work/wk2018689/
Genre:Drama
Source:DVD Disc
Language:Arabic
File size:2.04 GiB
Overall bit rate:2737 Kbps
Duration:1h 47mn  
Remux By:alrmothe



القصة:تدور أحداث الفيلم حول "رؤوف" مهندس ديكور ومدير معرض للأثاث، وهي شخصية شكاكة جدا لأبعد الحدود في التعامل مع من حوله، يدخل رؤؤف في غيبوبة وتبقى روحه عالقة بين السماء والأرض تريد أن تعرف رأي أصدقاؤه وأسرته عنه؛ ليُصدم فى العديد منهم، ويكتشف أخطاؤه بعد فوات الآوان.



cast
Hamad Helmy ... Rauf
Ghada Adel ... Sahr
Hassan Hosny ... Noah

بطولة



Video Information
Format: Matroska
Format : AVC 
Format/Info : Advanced Video Codec 
Format profile : High@L4.1 
Format settings, CABAC : Yes 
Format settings, ReFrames : 4 frames  
Codec ID : V_MPEG4/ISO/AVC  
Bit rate : 2485 kbps 
Frame rate : 25 fps 
Color space : YUV 
Chroma subsampling : 4:2:0 
Bit depth : 8 bits 
Scan type : Progressive 
Bits/(Pixel*Frame) : 0.346 
Stream size: 1.84 GiB 
Resolution:718x400


Audio Information:
Format : AC-3
Bit rate mode : Constant
Bit rate : 224 Kbps
Channel(s) : 2 channels
Channel positions : Front: L R
Sampling rate : 48.0 KHz
Bit depth : 16 bits
Compression mode : Lossy
Stream size : 171 MiB (4%)
Language:Arabic
مقطع لمعاينة الجودة
sample:Yes
الفصول
Chapters:Yes
كل الترجمات مرفقه مع الفيلم لأني استخرجتها من قرص الدي في دي
SUB:Arabic,English,French
The same subtitle format used on DVDs





DVD المصدر قرص





Screenshots



















.
المرفقات
a`ala gothaty 2013 Arabic Dvd x264 AC3 - alrmothe.zip
لا تتوفر على صلاحيات كافية لتحميل هذه المرفقات.
(12 Ko) عدد مرات التنزيل 5
الرجوع الى أعلى الصفحة اذهب الى الأسفل
معاينة صفحة البيانات الشخصي للعضو
لمسة إحساس
admin

admin
avatar

تاريخ التسجيل : 30/05/2012
عدد المساهمات : 13758
نقاط التقييم : 28291
الجنس : انثى
الجنسية :
الهواية :
المزاج :
عبارتي المفضلة :
مكان الاقامة : جــــــــــــدة
العمل : في القطاع الخاص ..
الأوسمة :

مُساهمةموضوع: رد: على جثتي a`ala gothaty 2013 Arabic Dvd x264 AC3 - alrmothe   الثلاثاء يونيو 18, 2013 6:09 am

دائما متميز يكل ما تطرحه 
اعجز عن شكرك و طيب تواصلك في المنتدى 
ربي يسعدك 
تم التحميل 
الرجوع الى أعلى الصفحة اذهب الى الأسفل
معاينة صفحة البيانات الشخصي للعضو http://mrame.forumarabia.com
إحساس انثى
torrent Movies

torrent  Movies
avatar

تاريخ التسجيل : 21/07/2012
عدد المساهمات : 249
نقاط التقييم : 429
الجنس : انثى
المزاج :
عبارتي المفضلة :
مكان الاقامة : جدة غير
الأوسمة :

مُساهمةموضوع: رد: على جثتي a`ala gothaty 2013 Arabic Dvd x264 AC3 - alrmothe   الإثنين يوليو 08, 2013 11:18 pm

يعطيك العافية
اشكرك
الرجوع الى أعلى الصفحة اذهب الى الأسفل
معاينة صفحة البيانات الشخصي للعضو
هديل الدلع
المرشحون لفريق الإشراف
المرشحون لفريق الإشراف
avatar

تاريخ التسجيل : 21/07/2012
عدد المساهمات : 495
نقاط التقييم : 903
الجنس : انثى
الجنسية :
المزاج :
عبارتي المفضلة :
مكان الاقامة : مكة المكرمة
الأوسمة :

مُساهمةموضوع: رد: على جثتي a`ala gothaty 2013 Arabic Dvd x264 AC3 - alrmothe   الأحد يوليو 21, 2013 4:16 am

شكرا لك يعطيك العافية
الرجوع الى أعلى الصفحة اذهب الى الأسفل
معاينة صفحة البيانات الشخصي للعضو
zizo morocco
عضو بقراطيسه

عضو بقراطيسه
avatar

تاريخ التسجيل : 05/07/2013
عدد المساهمات : 36
نقاط التقييم : 44
الجنس : ذكر
الجنسية :

مُساهمةموضوع: رد: على جثتي a`ala gothaty 2013 Arabic Dvd x264 AC3 - alrmothe   الإثنين يوليو 22, 2013 6:02 pm

يعطيك العافية
اشكرك
الرجوع الى أعلى الصفحة اذهب الى الأسفل
معاينة صفحة البيانات الشخصي للعضو
صقر المنصوره
عضو فك القرطاسة

عضو فك القرطاسة
avatar

تاريخ التسجيل : 25/10/2012
عدد المساهمات : 64
نقاط التقييم : 64
الجنس : ذكر
الجنسية :
المزاج :
عبارتي المفضلة :

مُساهمةموضوع: رد: على جثتي a`ala gothaty 2013 Arabic Dvd x264 AC3 - alrmothe   السبت يوليو 27, 2013 11:58 pm

فّيُ أٌنِتُظٌأًرِ جّدًيًدّڳّ أِلّأَرّوّعٌ وِأًلِمًمًيِزَ

لًڳَ مِنٌيّ أٌجَمًلٌ أِلًتَحِيُأٌتِ

وُڳِلً أِلٌتَوَفّيُقٌ لُڳِ يّأِ رٌبِ
الرجوع الى أعلى الصفحة اذهب الى الأسفل
معاينة صفحة البيانات الشخصي للعضو
nody elprince
عضو بقراطيسه

عضو بقراطيسه
avatar

تاريخ التسجيل : 14/03/2013
عدد المساهمات : 25
نقاط التقييم : 51
الجنس : ذكر
الجنسية :

مُساهمةموضوع: رد: على جثتي a`ala gothaty 2013 Arabic Dvd x264 AC3 - alrmothe   السبت أغسطس 24, 2013 4:38 pm

شكرا وبارك الله فيك 
بالتوفيق
الرجوع الى أعلى الصفحة اذهب الى الأسفل
معاينة صفحة البيانات الشخصي للعضو
 
على جثتي a`ala gothaty 2013 Arabic Dvd x264 AC3 - alrmothe
الرجوع الى أعلى الصفحة 
صفحة 1 من اصل 1
 مواضيع مماثلة
-
» الشمس تستيقظ من نوم عميق وتصيب الأرض بأضرار عام 2013
» صور مضحكه 2013
» الان أسرار لعبة GTA III
» Mohamed Mounir - Ta3m El-Buyout 2008, Full Album [Arabic Fon
» كيفية التعامل مع الشخص المغرور

صلاحيات هذا المنتدى:لاتستطيع الرد على المواضيع في هذا المنتدى
منتديات لمسة مرامي :: المنتديات الفنية و السينمائية :: منتدى افلام و مسلسلات التورنت torrent العربية-
انتقل الى: