منتديات لمسة مرامي

 
الرئيسيةالرئيسية  بحـثبحـث  التسجيلالتسجيل  دخولدخول  

شاطر | 
 

 غاوي مشاكل Ghawy Mashakel 1980 Dvd x264-10bit AC3 -alrmothe

اذهب الى الأسفل 
كاتب الموضوعرسالة
alrmothe
Professional torrent Movies

Professional torrent Movies
avatar

تاريخ التسجيل : 20/11/2012
عدد المساهمات : 150
نقاط التقييم : 410
الجنس : ذكر
الجنسية :
الأوسمة :

مُساهمةموضوع: غاوي مشاكل Ghawy Mashakel 1980 Dvd x264-10bit AC3 -alrmothe   السبت يونيو 22, 2013 9:14 pm

.


Movies : Drama: DVD :Arabic

Ghawy Mashakel 1980 Dvd x264-10bit AC3 -alrmothe








elcinema:
http://www.elcinema.com/work/wk1003209/
Genre:Drama
Source:DVD Disc
Language:Arabic
File size:2.03 GiB
Overall bit rate:2767 Kbps
Duration:1h 45mn  
Encoded / Released By:alrmothe




القصة : تترك عزة منزلها بعد أن أصبحت حياتها فيه مستحيلة بسبب مضايقات زوج أمها المتكررة، تتعرف عزة بمدحت وتنمو العلاقة بينهما حتى يعرض عليها الزواج إلا أنها ترفض الإرتباط به لثروته، توافق على الإقامة بمنزل مدحت بعد إن فشل فى العثور على سكن مناسب، هناك تتوطد علاقتها بالأرملة ماجدة، ذات يوم يشتد المرض على ماجدة وتشرف على الموت فتوصيها خيرا بوليدها وأن توصله لجدته، تموت ماجدة، وفى نفس الوقت تصل الجدة صفية إلى منزل ابنها فتظن صفية أن عزة هى ماجدة زوجة ابنها، فهى لم تتعرف من قبل على زوجة ابنها للقطيعة بينهما بسبب إصرار ابنها على الزواج من ماجدة، تستغل عزة الموقف وتنتحل شخصية ماجدة، فى منزل الجدة صفية يتعرف أحد أقرباء زوج ماجدة عليها ويرى أنها الزوجة المناسبة فيطلبها للزواج.. يرى مدحت أن تصرح عزة بالحقيقة وتخبر صفية عن حقيقة الموقف، تعترف عزة لصفية بحقيقة الموقف وتترك المنزل وتعود لمدحت ويتزوجان.




cast
Adel Imam ... Medhat
Nora ... Azza
Farouk Feshawi ... Mrad
Isaad Younes ... Samira

بطولة





Video Information
Format: Matroska
Format : AVC 
Format/Info : Advanced Video Codec 
Format profile : High10@L4.1 
Format settings, CABAC : Yes 
Format settings, ReFrames : 3 frames  
Codec ID : V_MPEG4/ISO/AVC  
Bit rate : 2568 kbps 
Frame rate : 29.970 fps 
Display aspect ratio :3:2 
Chroma subsampling : 4:2:0 
Bit depth : 10 bits  
Color space : YUV 
Scan type : Progressive 
Bits/(Pixel*Frame) : 0.265 
Stream size: 1.85 GiB 
Resolution:696x464


Audio Information:
Format : AC-3
Bit rate mode : Constant
Bit rate : 192 Kbps
Channel(s) : 2 channels
Channel positions : Front: L R
Sampling rate : 48.0 KHz
Bit depth : 16 bits
Compression mode : Lossy
Stream size : 145 MiB 
Language:Arabic


Chapters:Yes

SUB:English,French
The same subtitle format used on DVDs



 المصدر قرص DVD







Screenshots
















استخدمت  10bit في الضغط



الفرق بين bit8 و bit10 

10bit vs 8bit






الكود:

http://fr33dom.h33t.com:3310/announce
http://121.14.98.151:9090/announce
http://tracker.ex.ua/announce
http://p2pdl.com:2710/announce
http://exodus.desync.com:6969/announce
http://94.228.192.98/announce
http://tracker.coppersurfer.tk:6969/announce
udp://tracker.istole.it:80/announce
udp://fr33dom.h33t.com:3310/announce
http://announce.torrentsmd.com:8080/announce
http://announce.opensharing.org:2710/announce




Use KMPlayer or VLC media player for the best quality


لأفضل جودة استخدم برنامج

KMPlayer أو VLC media player






Trailer
https://www.youtube.com/watch?v=58FHRwR407Q













.
المرفقات
Ghawy Mashakel 1980 Dvd x264-10bit AC3 -alrmothe.zip
لا تتوفر على صلاحيات كافية لتحميل هذه المرفقات.
(12 Ko) عدد مرات التنزيل 1
الرجوع الى أعلى الصفحة اذهب الى الأسفل
معاينة صفحة البيانات الشخصي للعضو
لمسة إحساس
admin

admin
avatar

تاريخ التسجيل : 30/05/2012
عدد المساهمات : 13782
نقاط التقييم : 28317
الجنس : انثى
الجنسية :
الهواية :
المزاج :
عبارتي المفضلة :
مكان الاقامة : جــــــــــــدة
العمل : في القطاع الخاص ..
الأوسمة :

مُساهمةموضوع: رد: غاوي مشاكل Ghawy Mashakel 1980 Dvd x264-10bit AC3 -alrmothe   الأحد يونيو 23, 2013 3:01 am

دائما متميز في الانتقاء
سلمت يالغالي على روعه طرحك
نترقب المزيد من جديدك الرائع
دمت ودام لنا روعه مواضيعك
الرجوع الى أعلى الصفحة اذهب الى الأسفل
معاينة صفحة البيانات الشخصي للعضو http://mrame.forumarabia.com
إحساس انثى
torrent Movies

torrent  Movies
avatar

تاريخ التسجيل : 21/07/2012
عدد المساهمات : 249
نقاط التقييم : 429
الجنس : انثى
المزاج :
عبارتي المفضلة :
مكان الاقامة : جدة غير
الأوسمة :

مُساهمةموضوع: رد: غاوي مشاكل Ghawy Mashakel 1980 Dvd x264-10bit AC3 -alrmothe   الأحد يونيو 23, 2013 7:15 pm

مواضيعك دوووم تعجبني 
الله يوفقك
الرجوع الى أعلى الصفحة اذهب الى الأسفل
معاينة صفحة البيانات الشخصي للعضو
لعبة قدر
عضو فك القرطاسة

عضو فك القرطاسة
avatar

تاريخ التسجيل : 14/06/2013
عدد المساهمات : 89
نقاط التقييم : 89
الجنس : انثى
الجنسية :

مُساهمةموضوع: رد: غاوي مشاكل Ghawy Mashakel 1980 Dvd x264-10bit AC3 -alrmothe   الخميس يونيو 27, 2013 5:21 pm

سلمت يمينك عللطرح الجميل

دمت بخير

ودي ~
الرجوع الى أعلى الصفحة اذهب الى الأسفل
معاينة صفحة البيانات الشخصي للعضو
دينا حسني
عضو فك القرطاسة

عضو فك القرطاسة
avatar

تاريخ التسجيل : 06/06/2013
عدد المساهمات : 56
نقاط التقييم : 66
الجنس : انثى
الجنسية :

مُساهمةموضوع: رد: غاوي مشاكل Ghawy Mashakel 1980 Dvd x264-10bit AC3 -alrmothe   الجمعة يونيو 28, 2013 4:01 am

أشكرك جزيل الشكر على رووعة ما طرحت .. ما تحس به الروح و يتسلل إلى القلب ، حقاً موضوع في منتهى الرووعة من قلم مبدع
الرجوع الى أعلى الصفحة اذهب الى الأسفل
معاينة صفحة البيانات الشخصي للعضو
هديل الدلع
المرشحون لفريق الإشراف
المرشحون لفريق الإشراف
avatar

تاريخ التسجيل : 21/07/2012
عدد المساهمات : 495
نقاط التقييم : 903
الجنس : انثى
الجنسية :
المزاج :
عبارتي المفضلة :
مكان الاقامة : مكة المكرمة
الأوسمة :

مُساهمةموضوع: رد: غاوي مشاكل Ghawy Mashakel 1980 Dvd x264-10bit AC3 -alrmothe   الإثنين أغسطس 12, 2013 11:03 am

شكرا جزيلا لك
الرجوع الى أعلى الصفحة اذهب الى الأسفل
معاينة صفحة البيانات الشخصي للعضو
nody elprince
عضو بقراطيسه

عضو بقراطيسه
avatar

تاريخ التسجيل : 14/03/2013
عدد المساهمات : 25
نقاط التقييم : 51
الجنس : ذكر
الجنسية :

مُساهمةموضوع: رد: غاوي مشاكل Ghawy Mashakel 1980 Dvd x264-10bit AC3 -alrmothe   السبت أغسطس 24, 2013 4:37 pm

شكرا وبارك الله فيك 
بالتوفيق
الرجوع الى أعلى الصفحة اذهب الى الأسفل
معاينة صفحة البيانات الشخصي للعضو
 
غاوي مشاكل Ghawy Mashakel 1980 Dvd x264-10bit AC3 -alrmothe
الرجوع الى أعلى الصفحة 
صفحة 1 من اصل 1
 مواضيع مماثلة
-
» U2 - The Best Of: 1980 - 1990
» وفيات سنة 1980
» شارلي شابلن
» كلمات اغنية وردة الجزائرية حياتي بتحلو.
» شرقك وغربى

صلاحيات هذا المنتدى:لاتستطيع الرد على المواضيع في هذا المنتدى
منتديات لمسة مرامي :: المنتديات الفنية و السينمائية :: منتدى افلام و مسلسلات التورنت torrent العربية-
انتقل الى: